Internet Download Manager 6 30 Build 8 + Patch [CracksMind]
Air CityYoun's Kitchen 2 - 윤식당 시즌2 - Episode 11 [END] (Completed)
CyberOctave

Death Wish 2018 HDCAM x264 AAC [MW]

  • Category Movies
  • Type h.264/x264
  • Language English
  • Total size 817.9 MB
  • Uploaded By moviezworldz
  • Downloads 264
  • Last checked 1 day ago
  • Date uploaded 1 month ago
  • Seeders 20
  • Leechers 4

Death Wish

ActionCrimeDramaThriller

A mild-mannered father is transformed into a killing machine after his family is torn apart by a violent act.

Infohash : 4F06BA07932928A2247E345E58E6D83A0CA46EAC





General
Format : Matroska
Format version : Version 4 / Version 2
File size : 818 MiB
Duration : 1 h 39 min
Overall bit rate : 1 147 kb/s

Video
ID : 1
Format : AVC
Format/Info : Advanced Video Codec
Format profile : [email protected]
Format settings : CABAC / 4 Ref Frames
Format settings, CABAC : Yes
Format settings, RefFrames : 4 frames
Codec ID : V_MPEG4/ISO/AVC
Duration : 1 h 39 min
Bit rate : 1 050 kb/s
Width : 720 pixels
Height : 304 pixels
Display aspect ratio : 2.35:1
Frame rate mode : Constant
Frame rate : 29.970 (30000/1001) FPS
Color space : YUV
Chroma subsampling : 4:2:0
Bit depth : 8 bits
Scan type : Progressive
Bits/(Pixel*Frame) : 0.160
Stream size : 748 MiB (91%)
Writing library : x264 core 148 r2708 86b7198
Default : Yes
Forced : No

Audio
ID : 2
Format : AAC
Format/Info : Advanced Audio Codec
Format profile : LC
Codec ID : A_AAC-2
Duration : 1 h 39 min
Bit rate : 96.0 kb/s
Channel(s) : 2 channels
Channel positions : Front: L R
Sampling rate : 44.1 kHz
Frame rate : 43.066 FPS (1024 SPF)
Compression mode : Lossy
Stream size : 68.5 MiB (8%)
Default : Yes
Forced : No















Files:

Death Wish 2018 HDCAM x264 AAC
  • Death Wish 2018 HDCAM x264 AAC.mkv (817.9 MB)

Comments

Code:

  • udp://tracker.pirateparty.gr:6969/announce
  • udp://tracker.opentrackr.org:1337/announce
  • http://tracker.opentrackr.org/announce
  • udp://tracker.vanitycore.co:6969/announce
  • udp://public.popcorn-tracker.org:6969/announce
  • udp://9.rarbg.to:2710/announce
  • udp://9.rarbg.me:2710/announce
  • udp://9.rarbg.com:2770/announce
  • udp://inferno.demonoid.pw:3391/announce
  • udp://tracker.internetwarriors.net:1337/announce
  • udp://ipv4.tracker.harry.lu:80/announce
  • udp://p4p.arenabg.ch:1337/announce
  • http://tracker.vanitycore.co:6969/announce
  • http://public.popcorn-tracker.org:6969/announce
  • udp://tracker.zer0day.to:1337/announce